#TITLE:God know;
#SUBTITLE:;
#ARTIST:Dancing Monkeys Project;
#TITLETRANSLIT:;
#SUBTITLETRANSLIT:;
#ARTISTTRANSLIT:;
#CREDIT:Gorilla v1.1.3 (Dancing Monkeys v1.06);
#BANNER:;
#BACKGROUND:;
#LYRICSPATH:;
#CDTITLE:;
#MUSIC:God know.mp3;
#OFFSET:-0.810;
#SAMPLESTART:40.818;
#SAMPLELENGTH:12.000;
#SELECTABLE:YES;
#BPMS:0.000=149.969;
#STOPS:;
#BGCHANGES:;
// cache tags:
#FIRSTBEAT:0.604;
#LASTBEAT:99.604;
#SONGFILENAME:Songs/My Creations/God know/God know.sm;
#HASMUSIC:1;
#HASBANNER:0;
#MUSICLENGTH:105.080;
// end cache tags

//---------------dance-single - Basic----------------
#NOTES:
     dance-single:
     Basic:
     Easy:
     3:
     0.245,0.225,0.057,0.000,0.638,174.000,6.000,0.000,0.000,0.000:
0000
0000
0000
0000
0000
0000
0000
0000
0000
0000
1000
0000
0001
0000
0000
0000
0010
0000
0010
0000
,
1000
0000
0001
0000
0000
0000
0100
0000
0000
0000
0010
0000
1000
0000
1000
0000
0000
0000
0100
0000
,
0000
0000
0001
0000
0000
0000
1000
0000
0010
0000
0010
0000
1000
0000
0010
0000
0100
0000
0000
0000
,
1000
0000
0001
0000
0000
0000
0100
0000
0000
0000
0010
0000
1000
0000
1000
0000
0000
0000
0100
0000
,
1000
0000
0001
0000
0000
0000
0010
0000
0000
0000
0100
0000
1000
0000
1000
0000
0000
0000
0010
0000
,
1000
0000
0001
0000
0000
0000
0010
0000
0000
0000
0100
0000
1000
0000
1000
0000
0000
0000
0010
0000
,
0001
0000
1000
0000
0000
0000
0100
0000
0000
0000
0010
0000
0001
0000
0001
0000
0000
0000
0100
0000
,
0001
0000
0010
0000
0100
0000
0010
0000
0000
0000
0000
0000
0000
0000
0100
0000
1000
0000
0100
0000
,
1000
0000
0010
0000
0100
0000
0000
0000
0000
0000
0000
0000
0010
0000
1000
0000
0001
0000
0000
0000
,
1000
0000
0001
0000
0000
0000
0100
0000
0000
0000
0010
0000
1000
0000
1000
0000
0000
0000
0100
0000
,
0001
0000
0010
0000
0100
0000
0010
0000
0000
0000
0000
0000
0000
0000
0100
0000
1000
0000
0100
0000
,
1000
0000
0100
0000
0010
0000
0100
0000
0000
0000
0000
0000
0000
0000
0010
0000
0001
0000
0010
0000
,
1000
0000
0001
0000
0000
0000
0100
0000
0000
0000
0010
0000
1000
0000
1000
0000
0000
0000
0100
0000
,
0001
0000
1000
0000
0000
0000
0100
0000
0000
0000
0010
0000
0001
0000
0001
0000
0000
0000
0100
0000
,
0001
0000
1000
0000
0000
0000
0010
0000
0000
0000
0100
0000
0001
0000
0001
0000
0000
0000
0010
0000
,
0000
0000
1000
0000
0010
0000
1000
0000
0010
0000
1000
0000
0000
0000
0010
0000
0100
0000
0001
0000
,
0001
0000
0100
0000
0010
0000
0001
0000
0100
0000
0000
0000
0010
0000
0001
0000
0000
0000
0000
0000
,
0001
0000
0001
0000
1000
0000
0000
0000
0000
0000
0001
0000
0000
0000
0100
0000
0000
0000
0001
0000
,
1000
0000
0001
0000
0000
0000
0000
0000
0011
0000
1000
0000
1000
0000
0100
0000
0010
0000
0100
0000
,
0101
0000
0001
0000
1000
0000
0000
0000
0000
0000
0100
0000
1000
0000
0010
0000
0010
0000
1000
0000
,
0001
0000
0100
0000
0010
0000
0001
0000
0100
0000
0000
0000
0010
0000
0001
0000
0000
0000
0000
0000
,
1000
0000
0010
0000
1000
0000
0010
0000
0100
0000
0000
0000
1001
0000
0000
0000
0011
0000
1000
0000
,
1000
0000
0001
0000
0000
0000
0000
0000
0011
0000
1000
0000
1000
0000
0100
0000
0010
0000
0100
0000
,
0101
0000
0001
0000
1000
0000
0000
0000
0010
0000
0010
0000
0100
0000
0000
0000
0000
0000
0000
0000
,
1000
0000
0001
0000
0000
0000
0100
0000
0000
0000
0010
0000
1000
0000
1000
0000
0000
0000
0100
0000
,;

//---------------dance-single - Standard----------------
#NOTES:
     dance-single:
     Standard:
     Medium:
     5:
     0.319,0.332,0.057,0.000,0.890,229.000,6.000,0.000,0.000,0.000:
0000
0000
0000
1000
0001
0010
0100
1000
0001
0001
0010
0001
0100
0001
0100
0010
1000
0100
0100
0010
,
1000
0000
0100
0000
1000
0000
0010
0000
0100
0000
0001
0000
0100
0100
0100
0000
0001
0000
1000
0000
,
0000
0000
0001
0000
0000
0000
0100
0000
0001
0000
0001
0000
0010
0000
0100
0000
0000
0000
0000
0000
,
1000
0000
0100
0000
1000
0000
0010
0000
0100
0000
0001
0000
0100
0100
0100
0000
0001
0000
1000
0000
,
1000
0000
0100
0000
1000
0000
0010
0000
0100
0000
0001
0000
0100
0100
0100
0000
0001
0000
1000
0000
,
1000
0000
0010
0000
1000
0000
0100
0000
0010
0000
0001
0000
0010
0010
0010
0000
0001
0000
1000
0000
,
0001
0000
0010
0000
0001
0000
0100
0000
0010
0000
1000
0000
0010
0010
0010
0000
1000
0000
0001
0000
,
1000
0000
0010
0000
1000
0000
0001
0000
0000
0000
0000
0000
0100
0000
0010
0000
1000
0000
0001
0000
,
1000
0000
0100
0000
0010
0000
0000
0000
0000
0000
0000
0000
0100
0000
0010
0000
0001
0000
0000
0000
,
1000
0000
0100
0000
1000
0000
0010
0000
0100
0000
0001
0000
0100
0100
0100
0000
0001
0000
1000
0000
,
1000
0000
0010
0000
1000
0000
0001
0000
0000
0000
0000
0000
0100
0000
0010
0000
1000
0000
0001
0000
,
0001
0000
0010
0000
0001
0000
1000
0000
0000
0000
0000
0000
0100
0000
0010
0000
0001
0000
1000
0000
,
1000
0000
0100
0000
1000
0000
0010
0000
0100
0000
0001
0000
0100
0100
0100
0000
0001
0000
1000
0000
,
0001
0000
0100
0000
0001
0000
0010
0000
0100
0000
1000
0000
0100
0100
0100
0000
1000
0000
0001
0000
,
1000
0000
0100
0000
1000
0000
0010
0000
0100
0000
0001
0000
0100
0100
0100
0000
0001
0000
1000
0000
,
0000
0000
1000
0000
0100
0000
0010
0000
0001
0000
1000
0000
0000
0000
0001
0000
1000
0000
0100
0000
,
1000
0000
0010
0000
0001
0000
0100
0000
0010
0000
0000
0000
0001
0000
0100
0000
0000
0000
0000
0000
,
0001
0000
0001
0000
0010
0000
0000
0000
0000
0000
0001
0000
0000
0000
0010
0000
0000
0000
0100
0000
,
1000
0000
0010
0000
0000
0000
0000
0000
0110
0000
0001
0000
0001
0000
0100
0000
0010
0000
0100
0000
,
1001
0000
1000
0000
0001
0000
0000
0000
0000
0000
0010
0000
1000
0000
0010
0000
0010
0000
0001
0000
,
1000
0000
0010
0000
0001
0000
0100
0000
0010
0000
0000
0000
0001
0000
0100
0000
0000
0000
0000
0000
,
0001
0000
0100
0000
0001
0000
0100
0000
0001
0000
0000
0000
0110
0000
0000
0000
0011
0000
1000
0000
,
1000
0000
0010
0000
0000
0000
0000
0000
0110
0000
0001
0000
0001
0000
0100
0000
0010
0000
0100
0000
,
1010
0000
0001
0000
0010
0000
0000
0000
0100
0000
0100
0000
0010
0000
0000
0000
0000
0000
0000
0000
,
1000
0000
0100
0000
1000
0000
0010
0000
0100
0000
0001
0000
0100
0100
0100
0000
0001
0000
1000
0000
,;

//---------------dance-single - Heavy----------------
#NOTES:
     dance-single:
     Heavy:
     Hard:
     6:
     0.402,0.415,0.067,0.000,1.000,289.000,7.000,0.000,0.000,0.000:
0000
0000
0000
1000
0001
0100
0010
0100
0010
0010
0100
0010
1000
0100
1000
0100
0010
0100
0100
1000
,
1000
1000
0100
0000
0010
0010
0100
0000
0010
0010
0100
1000
0010
0010
0010
0100
0010
0010
1000
0000
,
0000
0000
0001
0000
0000
0000
1000
0000
0100
0000
0100
0000
1000
0000
0001
0000
0000
0000
0000
0000
,
1000
1000
0100
0000
0010
0010
0100
0000
0010
0010
0100
1000
0010
0010
0010
0100
0010
0010
1000
0000
,
0001
0001
0100
0000
0010
0010
0100
0000
0010
0010
0100
0001
0010
0010
0010
0100
0010
0010
0001
0000
,
1000
1000
0010
0000
0100
0100
0010
0000
0100
0100
0010
1000
0100
0100
0100
0010
0100
0100
1000
0000
,
1000
1000
0010
0000
0100
0100
0010
0000
0100
0100
0010
1000
0100
0100
0100
0010
0100
0100
1000
0000
,
0001
0000
0100
0000
0010
0000
1000
0000
0000
0000
0000
0000
0100
0000
0010
0000
0100
0000
0010
0000
,
1000
0000
0010
0000
1000
0000
0000
0000
0000
0000
0000
0000
0010
0000
1000
0000
0001
0000
0000
0000
,
1000
1000
0100
0000
0010
0010
0100
0000
0010
0010
0100
1000
0010
0010
0010
0100
0010
0010
1000
0000
,
0001
0000
0100
0000
0010
0000
1000
0000
0000
0000
0000
0000
0100
0000
0010
0000
0100
0000
0010
0000
,
1000
0000
0010
0000
0100
0000
0001
0000
0000
0000
0000
0000
0010
0000
0100
0000
0010
0000
0100
0000
,
1000
1000
0100
0000
0010
0010
0100
0000
0010
0010
0100
1000
0010
0010
0010
0100
0010
0010
1000
0000
,
1000
1000
0010
0000
0100
0100
0010
0000
0100
0100
0010
1000
0100
0100
0100
0010
0100
0100
1000
0000
,
0001
0001
0100
0000
0010
0010
0100
0000
0010
0010
0100
0001
0010
0010
0010
0100
0010
0010
0001
0000
,
0000
0000
1000
0000
0001
0000
1000
0000
0010
0000
1000
0000
0000
0000
0001
0000
0100
0000
0010
0000
,
1000
0000
0010
0000
0100
0000
0010
0000
1000
0000
0000
0000
0100
0000
1000
0000
0000
0000
0000
0000
,
0011
0000
1000
0000
0010
0000
0000
0000
0000
0000
0100
0000
0000
0000
0010
0000
0000
0000
1000
0000
,
0001
0000
1000
0000
0000
0000
0000
0000
1010
0000
1000
0000
1000
0000
0100
0000
0010
0000
0001
0000
,
0101
0000
1000
0000
0100
0000
0000
0000
0000
0000
0010
0000
0001
0000
0100
0000
0100
0000
0010
0000
,
1000
0000
0010
0000
0100
0000
0010
0000
1000
0000
0000
0000
0100
0000
1000
0000
0000
0000
0000
0000
,
0001
0000
0010
0000
0001
0000
0100
0000
0001
0000
0000
0000
1010
0000
0000
0000
1100
0000
0001
0000
,
0001
0000
1000
0000
0000
0000
0000
0000
1010
0000
1000
0000
1000
0000
0100
0000
0010
0000
0001
0000
,
0011
0000
1000
0000
0001
0000
0000
0000
1000
0000
1000
0000
0100
0000
0000
0000
0000
0000
0000
0000
,
1000
1000
0100
0000
0010
0010
0100
0000
0010
0010
0100
1000
0010
0010
0010
0100
0010
0010
1000
0000
,
;
